Geri git   x264 BluRay, BRRip DVDRip XviD, Yerli Dizi ve Türkçe Dublaj Film Paylaşım Forumu > Klipler > Yabancı Klipler

Santana - Santana IV - Live at the House of Blues, Las Vegas (2016) [Blu-Ray 1080i]

Klipler Kategorisinde ve Yabancı Klipler Forumunda Bulunan Santana - Santana IV - Live at the House of Blues, Las Vegas (2016) [Blu-Ray 1080i] Konusunu Görüntülemektesiniz, Konu İçerigi Kısaca ->> 21 Mart 2016'da, ...

Yeni Konu açCevapla
 
Konu Araçları
  #1  
Alt 08-08-2023, 21:28
 
Exclamation Santana - Santana IV - Live at the House of Blues, Las Vegas (2016) [Blu-Ray 1080i] Santana - Santana IV - Live at the House of Blues, Las Vegas (2016) [Blu-Ray 1080i]







21 Mart 2016'da, Santana IV albümünün yayınlanmasından birkaç hafta önce, Santana'nın klasik kadrosu Las Vegas'taki House Of Blues'da sahne aldı. Sundukları gösteri, yeni albümdeki parçaları, Santana IV'ün doğal halefi olduğu grubun ilk üç albümündeki klasik hitlerle birleştirdi. Bu, yetmişlerin başından beri birlikte performans sergilememiş ve kayıt yapmamış bir kadronun büyük ölçüde beklenen bir yeniden birleşimiydi. Grubun alamet-i farikası olan rock, Latin, blues, caz ve Afrika ritimlerinin parıldayan kombinasyonunu geri getirdi ve onları gerçekten eşsiz kıldı. Konser, orijinal grubu bu kadar özel kılan ve onlara pek çok hayranın kalbinde yer kazandıran kimya, dinamizm ve saf müzik sevincinin bir kutlamasıydı. Tekrar tekrar izlenebilecek bir gösteri.

[Sadece kayıtlı kullanıcılar linkleri görebilirler. ]

Tracklist:
01 Soul sacrifice
02 Jingo
03 Evil ways
04 Everybodys everything
05 Shake it
06 Anywhere you want to go
07 Choo choo
08 All aboard
09 Samba pa ti
10 Batuka
11 No one to depend on
12 Leave me alone
13 Sueños
14 Caminando
15 Blues magic
16 Echizo
17 Come as you are
18 Yambu
19 Black magic woman / Gypsy queen
20 Oye como va
21 Ronald Isley intro
22 Love makes the world go round
23 Freedom in your mind
24 Toussaint louverture

Bonus feature:
Interview with the band








[Sadece kayıtlı kullanıcılar linkleri görebilirler. ] [Sadece kayıtlı kullanıcılar linkleri görebilirler. ]


General
Complete name : H:\Santana_-_Santana_IV__BD_ Movie 0.mp4
Format : MPEG-4
Format profile : Base Media
Codec ID : isom (isom/iso2/avc1/mp41)
File size : 3.10 GiB
Duration : 2 h 14 min
Overall bit rate mode : Constant
Overall bit rate : 3 301 kb/s
Frame rate : 30.000 FPS
Writing application : Lavf58.44.100

Video
ID : 1
Format : AVC
Format/Info : Advanced Video Codec
Format profile : Main@L4
Format settings : CABAC / 1 Ref Frames
Format settings, CABAC : Yes
Format settings, Reference fra : 1 frame
Format settings, GOP : M=1, N=30
Codec ID : avc1
Codec ID/Info : Advanced Video Coding
Duration : 2 h 14 min
Bit rate mode : Constant
Bit rate : 3 103 kb/s
Width : 1 920 pixels
Height : 1 080 pixels
Display aspect ratio : 16:9
Frame rate mode : Constant
Frame rate : 30.000 FPS
Color space : YUV
Chroma subsampling : 4:2:0
Bit depth : 8 bits
Scan type : Progressive
Bits/(Pixel*Frame) : 0.050
Stream size : 2.91 GiB (94%)
Codec configuration box : avcC

Audio
ID : 2
Format : AAC LC
Format/Info : Advanced Audio Codec Low Complexity
Codec ID : mp4a-40-2
Duration : 2 h 14 min
Bit rate mode : Constant
Bit rate : 192 kb/s
Channel(s) : 2 channels
Channel layout : L R
Sampling rate : 44.1 kHz
Frame rate : 43.066 FPS (1024 SPF)
Compression mode : Lossy
Stream size : 185 MiB (6%)
Language : English
Default : Yes
Alternate group : 1
Alıntı ile Cevapla

DETRATAUS tarafından açılan son 5 konu
Thread Forum Last Poster Replies Views Last Post
Karanlık Oyun - The Blackening (2023) AMAZON-DL... 720p 1080p Bluray Dual TR-EN Filmler DETRATAUS 0 69 24-04-2024 11:19
Son Samuray - The Last Samurai (2003) ~ BluRay... 720p 1080p Bluray Dual TR-EN Filmler DETRATAUS 0 61 24-04-2024 11:12
Siyah Telefon - The Black Phone (2022) ~ BluRay... 720p 1080p Bluray Dual TR-EN Filmler DETRATAUS 0 52 24-04-2024 10:51
Gelinlerin Savaşı - Bride Wars (2009) ~ BluRay... 720p 1080p Bluray Dual TR-EN Filmler DETRATAUS 0 71 24-04-2024 10:45
Deja Vu (2006) ~ BluRay 1080P 2.0CHN [Türkçe |... 720p 1080p Bluray Dual TR-EN Filmler DETRATAUS 0 41 24-04-2024 10:40

Cevapla


Konuyu Toplam 1 Üye okuyor. (0 Kayıtlı üye ve 1 Misafir)
 
Konu Araçları


Benzer Konular
Konu Konuyu Başlatan Forum Cevaplar Son Mesaj
Santana – Dia De La Independencia (Live 1981) (2022) tyok Yabancı Albümler 0 19-09-2022 04:35
Carlos Santana – Carlos Santana: Tanglewood 1970 (Live) (2022) tyok Yabancı Albümler 0 03-08-2022 02:44
Carlos Santana & Herbie Hancock – Den-En Coliseum, Tokyo 1981 (Live) (2022) tyok Yabancı Albümler 0 28-07-2022 04:04
Santana - Santana IV (2016) Full Albüm İndir godofwar2013 Yabancı Albümler 1 15-04-2016 08:36
Santana - Live In Las Vegas (2015) HD 720p sonaslan_1989 Yabancı Klipler 0 02-04-2015 23:04


Bütün Zaman Ayarları WEZ +3 olarak düzenlenmiştir. Şu Anki Saat: 23:14 .


Powered by vBulletin® Version 3.8.9
Copyright ©2000 - 2024, Jelsoft Enterprises Ltd.