Geri git   x264 BluRay, BRRip DVDRip XviD, Yerli Dizi ve Türkçe Dublaj Film Paylaşım Forumu > divx dvdrip xvid > Belgeseller

Yaşam - Life S01 1080p BluRay x264 DUAL

divx dvdrip xvid Kategorisinde ve Belgeseller Forumunda Bulunan Yaşam - Life S01 1080p BluRay x264 DUAL Konusunu Görüntülemektesiniz, Konu İçerigi Kısaca ->> Yaşam - Life ...

Like Tree1Likes
  • 1 Post By SuperUp
Yeni Konu açCevapla
 
Konu Araçları
  #1  
Alt 02-05-2024, 14:52
 
Talking Yaşam - Life S01 1080p BluRay x264 DUAL Yaşam - Life S01 1080p BluRay x264 DUAL

Yaşam - Life S01 1080p BluRay x264 DUAL



IMDB LİNKİ

Tür: Belgesel

David Attenborough, hayvanların ve bitkilerin hayatta kalmak için gittiği olağanüstü sonlara bakıyor. Destansı gösteriler, harika TV ilkleri ve yeni vahşi yaşam davranışlarının örnekleri.

FİLMDEN KARELER


Kod:
General
Format                                   : Matroska
File size                                : 4.62 GiB
Duration                                 : 58 min 33 s
Overall bit rate                         : 11.3 Mb/s
Frame rate                               : 25.000 FPS

Video
Format                                   : AVC
Format/Info                              : Advanced Video Codec
Codec ID                                 : V_MPEG4/ISO/AVC
Duration                                 : 58 min 33 s
Width                                    : 1 920 pixels
Height                                   : 1 080 pixels
Frame rate                               : 25.000 FPS
Stream size                              : 4.09 GiB (89%)

Audio #1
Format                                   : AC-3
Format/Info                              : Audio Coding 3
Codec ID                                 : A_AC3
Duration                                 : 58 min 33 s
Channel(s)                               : 6 channels
Frame rate                               : 31.250 FPS (1536 SPF)
Stream size                              : 268 MiB (6%)
Language                                 : Turkish

Audio #2
Format                                   : AC-3
Format/Info                              : Audio Coding 3
Codec ID                                 : A_AC3
Duration                                 : 58 min 33 s
Channel(s)                               : 6 channels
Frame rate                               : 31.250 FPS (1536 SPF)
Stream size                              : 268 MiB (6%)
Language                                 : English

Text #1
Format                                   : UTF-8
Codec ID                                 : S_TEXT/UTF8
Codec ID/Info                            : UTF-8 Plain Text
Duration                                 : 57 min 34 s
Frame rate                               : 0.143 FPS
Stream size                              : 23.0 KiB (0%)
Language                                 : Turkish

Text #2
Format                                   : PGS
Codec ID                                 : S_HDMV/PGS
Codec ID/Info                            : Picture based subtitle format used on BDs/HD-DVDs
Duration                                 : 57 min 34 s
Frame rate                               : 0.296 FPS
Stream size                              : 14.1 MiB (0%)
Language                                 : English



BÖLÜM 01

[Sadece kayıtlı kullanıcılar linkleri görebilirler. ]
[Sadece kayıtlı kullanıcılar linkleri görebilirler. ]
[Sadece kayıtlı kullanıcılar linkleri görebilirler. ]
[Sadece kayıtlı kullanıcılar linkleri görebilirler. ]
[Sadece kayıtlı kullanıcılar linkleri görebilirler. ]
[Sadece kayıtlı kullanıcılar linkleri görebilirler. ]
[Sadece kayıtlı kullanıcılar linkleri görebilirler. ]
[Sadece kayıtlı kullanıcılar linkleri görebilirler. ]
[Sadece kayıtlı kullanıcılar linkleri görebilirler. ]


SuperUp


turbobit.net, gofile.io, buzzheavier.com, doodrive.com, megaup.net, send.cm, 1fichier.com, mixdrop.ag, pixeldrain.com, qiwi.gg, streamtape.com

---------------------------------------------------------------

Mulenyus bunu beğendi.
Alıntı ile Cevapla

SuperUp tarafından açılan son 5 konu
Thread Forum Last Poster Replies Views Last Post
Aşk Mevsimi (2024) m1080p AMZN WEB-DL H264 -... Yerli Sinema Filmleri SuperUp 0 130 09-07-2024 02:46
Kaçık Astronot - Space Cadet (2024) m1080p DUAL... 720p 1080p Bluray Dual TR-EN Filmler SuperUp 0 41 05-07-2024 17:56
Efsane (2024) m1080p AMZN WEB-DL H264 - SuperUp Yerli Sinema Filmleri SuperUp 0 87 05-07-2024 15:45
Arıcı: Ölüm Kovanı - The Beekeeper (2024) m1080p... 720p 1080p Bluray Dual TR-EN Filmler SuperUp 0 37 05-07-2024 15:24
Kolpaçino 4 4'lük (2024) m1080p AMZN WEB-DL H264... Yerli Sinema Filmleri rasgun 1 120 28-06-2024 02:30

  #2  
Alt 09-07-2024, 17:50
 
Standart

teşekkürler
Alıntı ile Cevapla
Cevapla


Konuyu Toplam 1 Üye okuyor. (0 Kayıtlı üye ve 1 Misafir)
 
Konu Araçları


Benzer Konular
Konu Konuyu Başlatan Forum Cevaplar Son Mesaj
Görünmez Yaşam - The Invisible Life 2019 DuaL [TR-POR] 1080p WEBRip x264 AC3 mnike 720p 1080p Bluray Dual TR-EN Filmler 0 10-08-2020 16:52
Gizli Bir Yaşam - A Hidden Life 2019 DuaL (TR-EN) 720p BluRay x264 DTS 5.1 - AMIABLE [HdT] mnike 720p 1080p Bluray Dual TR-EN Filmler 0 23-05-2020 23:43
Gizli Bir Yaşam | A Hidden Life | 2020 | m1080p | BluRay | 1.75 GB | Dual | TR-EN | Tek Link seyit72 720p 1080p Bluray Dual TR-EN Filmler 0 21-05-2020 04:46
Gizli Bir Yaşam | A Hidden Life | 2020 | m720p | BluRay | 1 GB | Dual | TR-EN | Tek Link seyit72 720p 1080p Bluray Dual TR-EN Filmler 0 21-05-2020 04:46
[OTHER] Ölümle Yaşam Arasında | The Life of David Gale | 2003 | m720p | BluRay | Dual | EN-TR | DCRG JesWhite 720p 1080p Bluray Dual TR-EN Filmler 0 08-10-2014 17:34


Bütün Zaman Ayarları WEZ +3 olarak düzenlenmiştir. Şu Anki Saat: 22:56 .


Powered by vBulletin® Version 3.8.9
Copyright ©2000 - 2024, Jelsoft Enterprises Ltd.